Релизера можно поддержать материально. Реквизиты чуть выше подписи. Нажмите на спасибо и поблагодарите

Roller Dollz / Детки на Роликах (James Avalon, Adam & Eve / Zero Tolerance) [2008, Feature, Straight, 1080p, Blu-Ray]

Reply to topic
DL-List and Torrent activity
Size:  43.59 GB   |    Registered:  2 years 5 months   |    Completed:  0 times
 
     
 
 
 
Author Message

andrejpershi ®

Gender: Male

Longevity: 3 years 6 months

Posts: 129

Location: USSP

Post 16-Jun-2016 09:47

[Quote]

Roller Dollz / Детки на Роликах

Год производства: 2008 Страна: USA Жанр: Feature, Comedy, Straight
Продолжительность: 04h 07min Режиссер: James Avalon Студия: Adam & Eve / Zero Tolerance
В ролях:
Bree Olson • Sunny Lane • Teagan Presley • Alektra Blue • Kayden Kross • Ava Rose • Courtney Cummz • Mia Presley • Camryn Kiss • Eva Angelina • Penny Flame • James Deen • Mr Pete • Tommy Gunn • Erik Everhard • Eric Swiss • Mick Blue • Mikey Butders
Описание:
Starring Sunny Lane As Florence Fightingale, Her Most Evil Role To Date!
For the first time ever, adult industry rivals Adam & Eve Pictures and Zero Tolerance join powers and invite you to go head-to-head with Roller Dollz! Go on the track and behind the bleachers as two competitive roller derby teams (the Bitch N Moaners and the Pin-Ups) bend all the rules... And each other... in this full contact sport! This high-end feature is big-budget quality and hot gonzo style sex all rolled into one!
Качество видео: Blu-Ray
Видео: VC-1, 1440x1080p (16:9), 16 Mbps, 23.976 fps
Аудио: ENG AC3, 384 Kbps, 48.0 kHz, 6 channels / SPA AC3, 192 Kbps, 48.0 kHz, 2 channels
Включает:
Диск1: Меню, Главы / Диск2: Меню, Главы, Бонус, Интервью, За кадром

BDInfo

Total   Video
Title                                                           Codec   Length  Movie Size      Disc Size       Bitrate Bitrate Main Audio Track                          Secondary Audio Track
-----                                                           ------  ------- --------------  --------------  ------- ------- ------------------                        ---------------------
00001.MPLS                                                      VC-1    2:56:28 17 530 593 408  22 584 223 934  13,25   15,96   DD AC3 5.1 384Kbps
DISC INFO:
Disc Title:     DiSC1
Disc Size:      22 584 223 934 bytes
Protection:     AACS
BD-Java:        No
BDInfo:         0.5.8
PLAYLIST REPORT:
Name:                   00001.MPLS
Length:                 2:56:28.411 (h:m:s.ms)
Size:                   17 530 593 408 bytes
Total Bitrate:          13,25 Mbps
VIDEO:
Codec                   Bitrate             Description
-----                   -------             -----------
VC-1 Video              15963 kbps          1080p / 23,976 fps / 16:9 / Advanced Profile 3
AUDIO:
Codec                           Language        Bitrate         Description
-----                           --------        -------         -----------
Dolby Digital Audio             English         384 kbps        5.1 / 48 kHz / 384 kbps / DN -4dB
Dolby Digital Audio             Spanish         192 kbps        2.0 / 48 kHz / 192 kbps / DN -4dB
FILES:
Name            Time In         Length          Size            Total Bitrate
----            -------         ------          ----            -------------
00001.M2TS      0:00:00.000     2:55:59.382     17 530 842 240  17 402
00010.M2TS      2:55:59.382     0:00:07.006     0               0
00005.M2TS      2:56:06.389     0:00:07.006     0               0
00006.M2TS      2:56:13.396     0:00:14.014     0               0
00002.M2TS      2:56:27.410     0:00:01.000     0               0
CHAPTERS:
Number          Time In         Length          Avg Video Rate  Max 1-Sec Rate  Max 1-Sec Time  Max 5-Sec Rate  Max 5-Sec Time  Max 10Sec Rate  Max 10Sec Time  Avg Frame Size  Max Frame Size  Max Frame Time
------          -------         ------          --------------  --------------  --------------  --------------  --------------  --------------  --------------  --------------  --------------  --------------
1               0:00:00.000     0:02:53.173     25 896 kbps     48 915 kbps     00:01:36.721    36 938 kbps     00:00:59.225    35 100 kbps     00:00:18.476    136 456 bytes   442 327 bytes   00:01:07.317
2               0:02:53.173     0:03:40.803     13 991 kbps     22 069 kbps     00:04:54.919    20 675 kbps     00:04:17.924    19 236 kbps     00:04:14.504    72 997 bytes    291 567 bytes   00:02:56.092
3               0:06:33.976     0:02:00.328     11 345 kbps     22 828 kbps     00:07:01.921    18 690 kbps     00:07:01.921    17 717 kbps     00:06:59.585    59 150 bytes    290 119 bytes   00:07:13.474
4               0:08:34.305     0:02:16.302     11 235 kbps     18 696 kbps     00:10:49.398    13 474 kbps     00:10:45.561    12 004 kbps     00:10:40.556    58 572 bytes    228 148 bytes   00:08:44.565
5               0:10:50.608     0:02:03.498     12 607 kbps     28 925 kbps     00:10:56.197    25 212 kbps     00:10:54.779    22 067 kbps     00:10:50.691    65 727 bytes    293 262 bytes   00:12:07.727
6               0:12:54.106     0:03:11.357     12 553 kbps     32 078 kbps     00:12:56.817    22 328 kbps     00:12:54.482    18 383 kbps     00:12:54.106    65 444 bytes    284 936 bytes   00:12:58.778
7               0:16:05.464     0:01:49.400     12 550 kbps     21 560 kbps     00:17:11.905    19 500 kbps     00:17:09.069    16 880 kbps     00:17:08.610    65 428 bytes    268 943 bytes   00:17:50.819
8               0:17:54.865     0:00:25.191     11 084 kbps     15 511 kbps     00:17:55.532    13 090 kbps     00:17:54.865    11 988 kbps     00:17:54.865    58 271 bytes    257 858 bytes   00:17:56.075
9               0:18:20.057     0:05:26.451     12 683 kbps     25 030 kbps     00:18:20.265    21 593 kbps     00:18:29.108    20 131 kbps     00:18:28.482    66 124 bytes    285 015 bytes   00:18:21.100
10              0:23:46.508     0:04:01.282     11 361 kbps     22 418 kbps     00:26:02.602    19 349 kbps     00:25:59.182    18 303 kbps     00:25:59.140    59 233 bytes    275 378 bytes   00:26:02.644
11              0:27:47.791     0:02:47.709     10 756 kbps     13 860 kbps     00:30:07.931    13 059 kbps     00:30:04.302    12 285 kbps     00:29:00.447    56 079 bytes    214 351 bytes   00:28:29.708
12              0:30:35.500     0:03:39.385     11 799 kbps     27 197 kbps     00:32:08.760    20 550 kbps     00:32:07.508    19 385 kbps     00:32:04.589    61 515 bytes    282 574 bytes   00:32:09.719
13              0:34:14.886     0:06:34.519     13 920 kbps     35 133 kbps     00:39:56.602    30 669 kbps     00:39:52.056    26 538 kbps     00:39:49.428    72 571 bytes    307 547 bytes   00:36:54.253
14              0:40:49.405     0:04:19.759     13 174 kbps     26 070 kbps     00:41:54.678    25 670 kbps     00:41:53.427    21 002 kbps     00:41:52.092    68 683 bytes    307 536 bytes   00:41:52.134
15              0:45:09.164     0:01:54.989     12 700 kbps     20 861 kbps     00:46:48.639    16 848 kbps     00:46:45.636    16 329 kbps     00:45:57.337    66 212 bytes    278 083 bytes   00:45:59.381
16              0:47:04.154     0:02:09.754     13 558 kbps     17 584 kbps     00:47:46.947    16 541 kbps     00:47:44.945    15 761 kbps     00:47:41.066    70 686 bytes    258 316 bytes   00:47:28.470
17              0:49:13.909     0:01:11.029     16 781 kbps     29 035 kbps     00:50:00.330    25 913 kbps     00:49:58.120    22 638 kbps     00:49:52.990    87 489 bytes    302 730 bytes   00:50:00.622
18              0:50:24.938     0:02:24.769     14 069 kbps     21 902 kbps     00:52:03.703    19 722 kbps     00:52:02.994    17 964 kbps     00:52:01.076    73 351 bytes    263 041 bytes   00:50:45.042
19              0:52:49.708     0:01:41.142     14 243 kbps     21 641 kbps     00:52:54.880    18 920 kbps     00:52:56.381    17 757 kbps     00:52:53.128    74 258 bytes    304 200 bytes   00:53:32.918
20              0:54:30.850     0:05:43.217     14 178 kbps     21 865 kbps     00:55:47.927    20 352 kbps     00:55:21.151    19 910 kbps     00:55:38.918    73 918 bytes    275 759 bytes   00:55:40.045
21              1:00:14.068     0:00:40.707     10 279 kbps     18 589 kbps     01:00:52.315    12 773 kbps     01:00:14.068    11 171 kbps     01:00:14.068    53 757 bytes    209 941 bytes   01:00:52.357
22              1:00:54.776     0:14:20.734     20 863 kbps     41 058 kbps     01:02:12.728    35 787 kbps     01:01:53.209    34 357 kbps     01:01:38.569    108 778 bytes   325 301 bytes   01:01:31.521
23              1:15:15.511     0:04:12.377     12 247 kbps     20 936 kbps     01:17:18.550    19 081 kbps     01:18:51.643    17 830 kbps     01:18:47.806    63 851 bytes    282 405 bytes   01:16:13.485
24              1:19:27.888     0:03:41.679     12 562 kbps     27 416 kbps     01:21:18.748    20 411 kbps     01:21:16.538    17 587 kbps     01:21:16.162    65 492 bytes    299 065 bytes   01:20:09.721
25              1:23:09.567     0:04:38.111     12 862 kbps     28 683 kbps     01:23:19.619    20 186 kbps     01:23:19.536    19 061 kbps     01:23:19.619    67 058 bytes    303 262 bytes   01:24:59.010
26              1:27:47.679     0:06:19.796     26 197 kbps     44 916 kbps     01:28:45.028    37 185 kbps     01:31:35.615    35 203 kbps     01:31:13.134    136 581 bytes   351 227 bytes   01:31:37.992
27              1:34:07.475     0:03:45.558     23 660 kbps     30 084 kbps     01:36:30.242    28 307 kbps     01:36:27.072    27 298 kbps     01:36:23.235    123 352 bytes   274 741 bytes   01:36:35.498
28              1:37:53.033     0:02:45.039     23 856 kbps     29 616 kbps     01:38:19.143    27 898 kbps     01:38:15.639    27 211 kbps     01:38:13.095    124 377 bytes   267 280 bytes   01:38:50.633
29              1:40:38.073     0:03:17.780     22 248 kbps     31 256 kbps     01:43:32.497    29 463 kbps     01:40:56.675    28 200 kbps     01:40:57.676    115 991 bytes   262 166 bytes   01:43:34.208
30              1:43:55.854     0:02:36.948     20 026 kbps     28 975 kbps     01:45:36.121    25 319 kbps     01:45:33.869    23 505 kbps     01:45:28.947    104 405 bytes   243 077 bytes   01:43:57.231
31              1:46:32.803     0:01:15.617     21 647 kbps     27 793 kbps     01:47:17.013    25 013 kbps     01:47:11.007    24 701 kbps     01:47:10.799    112 857 bytes   259 513 bytes   01:47:27.441
32              1:47:48.420     0:00:55.430     17 247 kbps     25 040 kbps     01:48:02.434    23 172 kbps     01:47:58.430    21 517 kbps     01:47:58.013    89 916 bytes    234 857 bytes   01:48:14.488
33              1:48:43.850     0:01:00.977     16 529 kbps     24 394 kbps     01:49:33.567    21 737 kbps     01:48:54.069    20 721 kbps     01:48:52.234    86 177 bytes    221 665 bytes   01:49:36.570
34              1:49:44.828     0:00:53.470     19 740 kbps     25 039 kbps     01:50:22.324    21 947 kbps     01:50:19.487    21 402 kbps     01:50:20.238    102 917 bytes   253 955 bytes   01:50:27.621
35              1:50:38.298     0:04:34.565     17 666 kbps     26 736 kbps     01:52:13.059    24 220 kbps     01:52:28.700    22 646 kbps     01:51:47.200    92 104 bytes    360 087 bytes   01:52:18.231
36              1:55:12.864     0:02:13.299     14 615 kbps     21 408 kbps     01:56:34.862    18 187 kbps     01:56:09.921    17 526 kbps     01:56:04.958    76 196 bytes    257 835 bytes   01:56:11.881
37              1:57:26.164     0:02:47.667     14 138 kbps     31 849 kbps     01:58:53.751    23 256 kbps     01:58:52.166    20 814 kbps     01:57:36.674    73 711 bytes    296 027 bytes   02:00:11.120
38              2:00:13.831     0:01:55.240     13 757 kbps     21 056 kbps     02:00:15.082    19 108 kbps     02:00:52.703    18 604 kbps     02:00:51.953    71 721 bytes    271 967 bytes   02:01:23.609
39              2:02:09.071     0:03:37.675     13 206 kbps     29 094 kbps     02:02:10.823    24 394 kbps     02:02:09.488    20 323 kbps     02:02:09.155    68 848 bytes    279 927 bytes   02:02:14.201
40              2:05:46.747     0:04:55.503     13 953 kbps     30 973 kbps     02:06:54.398    24 285 kbps     02:06:55.149    23 170 kbps     02:06:52.146    72 746 bytes    287 258 bytes   02:07:01.447
41              2:10:42.251     0:01:06.566     11 384 kbps     19 045 kbps     02:11:40.309    16 702 kbps     02:11:37.014    15 048 kbps     02:11:34.469    59 350 bytes    231 175 bytes   02:10:45.838
42              2:11:48.817     0:04:41.447     6 679 kbps      22 785 kbps     02:13:49.604    17 697 kbps     02:13:49.354    16 315 kbps     02:14:06.913    64 573 bytes    291 890 bytes   02:13:27.541
43              2:16:30.265     0:02:55.466     0 kbps          0 kbps          00:00:00.000    0 kbps          00:00:00.000    0 kbps          00:00:00.000    0 bytes         0 bytes         00:00:00.000
44              2:19:25.732     0:04:31.688     0 kbps          0 kbps          00:00:00.000    0 kbps          00:00:00.000    0 kbps          00:00:00.000    0 bytes         0 bytes         00:00:00.000
45              2:23:57.420     0:02:05.291     0 kbps          0 kbps          00:00:00.000    0 kbps          00:00:00.000    0 kbps          00:00:00.000    0 bytes         0 bytes         00:00:00.000
46              2:26:02.712     0:06:23.549     0 kbps          0 kbps          00:00:00.000    0 kbps          00:00:00.000    0 kbps          00:00:00.000    0 bytes         0 bytes         00:00:00.000
47              2:32:26.262     0:01:56.741     0 kbps          0 kbps          00:00:00.000    0 kbps          00:00:00.000    0 kbps          00:00:00.000    0 bytes         0 bytes         00:00:00.000
48              2:34:23.003     0:00:53.428     0 kbps          0 kbps          00:00:00.000    0 kbps          00:00:00.000    0 kbps          00:00:00.000    0 bytes         0 bytes         00:00:00.000
49              2:35:16.432     0:04:05.912     0 kbps          0 kbps          00:00:00.000    0 kbps          00:00:00.000    0 kbps          00:00:00.000    0 bytes         0 bytes         00:00:00.000
50              2:39:22.344     0:02:52.714     0 kbps          0 kbps          00:00:00.000    0 kbps          00:00:00.000    0 kbps          00:00:00.000    0 bytes         0 bytes         00:00:00.000
51              2:42:15.058     0:02:40.493     0 kbps          0 kbps          00:00:00.000    0 kbps          00:00:00.000    0 kbps          00:00:00.000    0 bytes         0 bytes         00:00:00.000
52              2:44:55.552     0:03:37.717     0 kbps          0 kbps          00:00:00.000    0 kbps          00:00:00.000    0 kbps          00:00:00.000    0 bytes         0 bytes         00:00:00.000
53              2:48:33.269     0:01:15.450     0 kbps          0 kbps          00:00:00.000    0 kbps          00:00:00.000    0 kbps          00:00:00.000    0 bytes         0 bytes         00:00:00.000
54              2:49:48.720     0:02:14.676     0 kbps          0 kbps          00:00:00.000    0 kbps          00:00:00.000    0 kbps          00:00:00.000    0 bytes         0 bytes         00:00:00.000
55              2:52:03.396     0:03:13.902     0 kbps          0 kbps          00:00:00.000    0 kbps          00:00:00.000    0 kbps          00:00:00.000    0 bytes         0 bytes         00:00:00.000
56              2:55:17.298     0:00:42.083     0 kbps          0 kbps          00:00:00.000    0 kbps          00:00:00.000    0 kbps          00:00:00.000    0 bytes         0 bytes         00:00:00.000
57              2:55:59.382     0:00:07.006     0 kbps          0 kbps          00:00:00.000    0 kbps          00:00:00.000    0 kbps          00:00:00.000    0 bytes         0 bytes         00:00:00.000
58              2:56:06.389     0:00:07.006     0 kbps          0 kbps          00:00:00.000    0 kbps          00:00:00.000    0 kbps          00:00:00.000    0 bytes         0 bytes         00:00:00.000
59              2:56:13.396     0:00:14.013     0 kbps          0 kbps          00:00:00.000    0 kbps          00:00:00.000    0 kbps          00:00:00.000    0 bytes         0 bytes         00:00:00.000
60              2:56:27.410     0:00:01.001     0 kbps          0 kbps          00:00:00.000    0 kbps          00:00:00.000    0 kbps          00:00:00.000    0 bytes         0 bytes         00:00:00.000
STREAM DIAGNOSTICS:
File            PID             Type            Codec           Language                Seconds                 Bitrate                 Bytes           Packets
----            ---             ----            -----           --------                --------------          --------------          -------------   -----
00001.M2TS      4113 (0x1011)   0xEA            VC-1                                    8060,636                15 962                  16 083 487 118  87 527 250
00001.M2TS      4352 (0x1100)   0x81            AC3             eng (English)           8060,636                384                     386 888 215     2 266 923
00001.M2TS      4353 (0x1101)   0x81            AC3             spa (Spanish)           8060,636                192                     193 453 407     1 259 462
00010.M2TS      4113 (0x1011)   0xEA            VC-1                                    0                       0                       0               0
00005.M2TS      4113 (0x1011)   0xEA            VC-1                                    0                       0                       0               0
00006.M2TS      4113 (0x1011)   0xEA            VC-1                                    0                       0                       0               0
00002.M2TS      4113 (0x1011)   0xEA            VC-1                                    0                       0                       0               0
Total   Video
Title                                                           Codec   Length  Movie Size      Disc Size       Bitrate Bitrate Main Audio Track                          Secondary Audio Track
-----                                                           ------  ------- --------------  --------------  ------- ------- ------------------                        ---------------------
00001.MPLS                                                      VC-1    1:11:13 0               24 220 791 898  0,00    0,00    DD AC3 5.1 384Kbps
DISC INFO:
Disc Title:     DiSC2
Disc Size:      24 220 791 898 bytes
Protection:     AACS
BD-Java:        No
BDInfo:         0.5.8
PLAYLIST REPORT:
Name:                   00001.MPLS
Length:                 1:11:13.435 (h:m:s.ms)
Size:                   0 bytes
Total Bitrate:          0,00 Mbps
VIDEO:
Codec                   Bitrate             Description
-----                   -------             -----------
VC-1 Video              0 kbps              1080p / 23,976 fps / 16:9 / Advanced Profile 3
AUDIO:
Codec                           Language        Bitrate         Description
-----                           --------        -------         -----------
Dolby Digital Audio             English         384 kbps        5.1 / 48 kHz / 384 kbps / DN -4dB
Dolby Digital Audio             Spanish         192 kbps        2.0 / 48 kHz / 192 kbps / DN -4dB
FILES:
Name            Time In         Length          Size            Total Bitrate
----            -------         ------          ----            -------------
00001.M2TS      0:00:00.000     1:10:58.420     0               0
00010.M2TS      1:10:58.420     0:00:07.006     0               0
00005.M2TS      1:11:05.427     0:00:07.006     0               0
00006.M2TS      1:11:12.434     0:00:01.000     0               0
CHAPTERS:
Number          Time In         Length          Avg Video Rate  Max 1-Sec Rate  Max 1-Sec Time  Max 5-Sec Rate  Max 5-Sec Time  Max 10Sec Rate  Max 10Sec Time  Avg Frame Size  Max Frame Size  Max Frame Time
------          -------         ------          --------------  --------------  --------------  --------------  --------------  --------------  --------------  --------------  --------------  --------------
1               0:00:00.000     0:01:35.553     0 kbps          0 kbps          00:00:00.000    0 kbps          00:00:00.000    0 kbps          00:00:00.000    0 bytes         0 bytes         00:00:00.000
2               0:01:35.553     0:01:42.769     0 kbps          0 kbps          00:00:00.000    0 kbps          00:00:00.000    0 kbps          00:00:00.000    0 bytes         0 bytes         00:00:00.000
3               0:03:18.323     0:02:40.618     0 kbps          0 kbps          00:00:00.000    0 kbps          00:00:00.000    0 kbps          00:00:00.000    0 bytes         0 bytes         00:00:00.000
4               0:05:58.941     0:02:16.219     0 kbps          0 kbps          00:00:00.000    0 kbps          00:00:00.000    0 kbps          00:00:00.000    0 bytes         0 bytes         00:00:00.000
5               0:08:15.161     0:01:20.747     0 kbps          0 kbps          00:00:00.000    0 kbps          00:00:00.000    0 kbps          00:00:00.000    0 bytes         0 bytes         00:00:00.000
6               0:09:35.908     0:01:17.285     0 kbps          0 kbps          00:00:00.000    0 kbps          00:00:00.000    0 kbps          00:00:00.000    0 bytes         0 bytes         00:00:00.000
7               0:10:53.194     0:02:17.762     0 kbps          0 kbps          00:00:00.000    0 kbps          00:00:00.000    0 kbps          00:00:00.000    0 bytes         0 bytes         00:00:00.000
8               0:13:10.956     0:00:39.539     0 kbps          0 kbps          00:00:00.000    0 kbps          00:00:00.000    0 kbps          00:00:00.000    0 bytes         0 bytes         00:00:00.000
9               0:13:50.496     0:03:07.270     0 kbps          0 kbps          00:00:00.000    0 kbps          00:00:00.000    0 kbps          00:00:00.000    0 bytes         0 bytes         00:00:00.000
10              0:16:57.766     0:03:11.941     0 kbps          0 kbps          00:00:00.000    0 kbps          00:00:00.000    0 kbps          00:00:00.000    0 bytes         0 bytes         00:00:00.000
11              0:20:09.708     0:02:21.766     0 kbps          0 kbps          00:00:00.000    0 kbps          00:00:00.000    0 kbps          00:00:00.000    0 bytes         0 bytes         00:00:00.000
12              0:22:31.475     0:03:24.454     0 kbps          0 kbps          00:00:00.000    0 kbps          00:00:00.000    0 kbps          00:00:00.000    0 bytes         0 bytes         00:00:00.000
13              0:25:55.929     0:01:48.399     0 kbps          0 kbps          00:00:00.000    0 kbps          00:00:00.000    0 kbps          00:00:00.000    0 bytes         0 bytes         00:00:00.000
14              0:27:44.329     0:02:54.507     0 kbps          0 kbps          00:00:00.000    0 kbps          00:00:00.000    0 kbps          00:00:00.000    0 bytes         0 bytes         00:00:00.000
15              0:30:38.837     0:08:48.861     0 kbps          0 kbps          00:00:00.000    0 kbps          00:00:00.000    0 kbps          00:00:00.000    0 bytes         0 bytes         00:00:00.000
16              0:39:27.698     0:03:34.839     0 kbps          0 kbps          00:00:00.000    0 kbps          00:00:00.000    0 kbps          00:00:00.000    0 bytes         0 bytes         00:00:00.000
17              0:43:02.538     0:02:22.350     0 kbps          0 kbps          00:00:00.000    0 kbps          00:00:00.000    0 kbps          00:00:00.000    0 bytes         0 bytes         00:00:00.000
18              0:45:24.888     0:01:14.574     0 kbps          0 kbps          00:00:00.000    0 kbps          00:00:00.000    0 kbps          00:00:00.000    0 bytes         0 bytes         00:00:00.000
19              0:46:39.463     0:02:40.493     0 kbps          0 kbps          00:00:00.000    0 kbps          00:00:00.000    0 kbps          00:00:00.000    0 bytes         0 bytes         00:00:00.000
20              0:49:19.957     0:03:28.416     0 kbps          0 kbps          00:00:00.000    0 kbps          00:00:00.000    0 kbps          00:00:00.000    0 bytes         0 bytes         00:00:00.000
21              0:52:48.373     0:12:20.948     0 kbps          0 kbps          00:00:00.000    0 kbps          00:00:00.000    0 kbps          00:00:00.000    0 bytes         0 bytes         00:00:00.000
22              1:05:09.322     0:03:57.862     0 kbps          0 kbps          00:00:00.000    0 kbps          00:00:00.000    0 kbps          00:00:00.000    0 bytes         0 bytes         00:00:00.000
23              1:09:07.184     0:01:51.236     0 kbps          0 kbps          00:00:00.000    0 kbps          00:00:00.000    0 kbps          00:00:00.000    0 bytes         0 bytes         00:00:00.000
24              1:10:58.420     0:00:07.006     0 kbps          0 kbps          00:00:00.000    0 kbps          00:00:00.000    0 kbps          00:00:00.000    0 bytes         0 bytes         00:00:00.000
25              1:11:05.427     0:00:07.006     0 kbps          0 kbps          00:00:00.000    0 kbps          00:00:00.000    0 kbps          00:00:00.000    0 bytes         0 bytes         00:00:00.000
26              1:11:12.434     0:00:01.001     0 kbps          0 kbps          00:00:00.000    0 kbps          00:00:00.000    0 kbps          00:00:00.000    0 bytes         0 bytes         00:00:00.000
STREAM DIAGNOSTICS:
File            PID             Type            Codec           Language                Seconds                 Bitrate                 Bytes           Packets
----            ---             ----            -----           --------                --------------          --------------          -------------   -----
00001.M2TS      4113 (0x1011)   0xEA            VC-1                                    0                       0                       0               0
00001.M2TS      4352 (0x1100)   0x81            AC3             eng (English)           0                       0                       0               0
00001.M2TS      4353 (0x1101)   0x81            AC3             spa (Spanish)           0                       0                       0               0
00010.M2TS      4113 (0x1011)   0xEA            VC-1                                    0                       0                       0               0
00005.M2TS      4113 (0x1011)   0xEA            VC-1                                    0                       0                       0               0
00006.M2TS      4113 (0x1011)   0xEA            VC-1                                    0                       0                       0               0

Полноразмерные превью


Скринлист


[www.pdenis.com].t8357.torrent 
Torrent: Registered [ 2017-06-30 16:30 ] · AD221E8A21B5B95B8E04182638ED4D18AAE4F159

Download .torrent

Download

232 KB

Status: checked
Completed: 0 times
Size: 43.59 GB
terms.php
сказать спасибо


Последние поблагодарившие

[Profile] [PM]
Display posts:    
Reply to topic

Current time is: 16-Dec 04:11

All times are UTC + 3



You cannot post new topics in this forum
You cannot reply to topics in this forum
You cannot edit your posts in this forum
You cannot delete your posts in this forum
You cannot vote in polls in this forum
You cannot attach files in this forum
You can download files in this forum