Релизера можно поддержать материально. Реквизиты чуть выше подписи. Нажмите на спасибо и поблагодарите

Woman & Young Boy Compilation - Подростковые мечты о зрелых тетках [Erotica, Compilation, Woman & Young Boy, Music Video]

Reply to topic
DL-List and Torrent activity
Size:  90 MB   |    Registered:  2 years 6 months   |    Completed:  0 times
 
     
 
 
 
Author Message

-WhatTheFuck ®

Gender: Male

Longevity: 3 years 9 months

Posts: 6586

Location: CCCP

Post 08-Mar-2015 08:53

[Quote]

Woman & Young Boy Compilation


Жанр:
Erotica, Compilation, Music Video, Mature Woman & Young Boy.
Описание: Подростковые мечты о зрелых тетках. Первые сиськи и все такое.
Нарезка из художественных фильмов XX века. Автор, к сожалению, неизвестен.

Тех данные

Видео: Windows Media Video 9 720x576 25fps 768kbps
ID : 2
Format : VC-1
Format profile : [email protected]
Codec ID : WMV3
Codec ID/Info : Windows Media Video 9
Codec ID/Hint : WMV3
Description of the codec : Windows Media Video 9
Duration : 13mn 58s
Bit rate mode : Constant
Bit rate : 768 Kbps
Width : 720 pixels
Height : 576 pixels
Display aspect ratio : 5:4
Frame rate : 25.000 fps
Standard : PAL
Bit depth : 8 bits
Scan type : Progressive
Compression mode : Lossy
Bits/(Pixel*Frame) : 0.074
Stream size : 76.8 MiB (85%)
Аудио: Windows Media Audio 44100Hz stereo 128kbps
ID : 1
Format : WMA
Format version : Version 2
Codec ID : 161
Codec ID/Info : Windows Media Audio
Description of the codec : Windows Media Audio 9.1 - 128 kbps, 44 kHz, stereo (A/V) 1-pass CBR
Duration : 13mn 58s
Bit rate mode : Constant
Bit rate : 128 Kbps
Channel(s) : 2 channels
Sampling rate : 44.1 KHz
Bit depth : 16 bits
Stream size : 12.8 MiB (14%)

Скринлист

[www.pdenis.com].t60.torrent 
Torrent: Registered [ 2017-05-23 12:26 ] · 5B351046BBAEBF1EF348CF566B0CB8F90EA5082E

Download .torrent

Download

14 KB

Status: checked
Completed: 0 times
Size: 90 MB
terms.php
сказать спасибо


Последние поблагодарившие

[Profile] [PM]
Display posts:    
Reply to topic

Current time is: 12-Dec 10:14

All times are UTC + 3



You cannot post new topics in this forum
You cannot reply to topics in this forum
You cannot edit your posts in this forum
You cannot delete your posts in this forum
You cannot vote in polls in this forum
You cannot attach files in this forum
You can download files in this forum