Релизера можно поддержать материально. Реквизиты чуть выше подписи. Нажмите на спасибо и поблагодарите

Hi.Me.Go.To / Himegoto / Hi Me Go To / Хи.Мэ.Го.То (Katsura Kurige, Chaos Project, Pink Pineapple) (ep. 1) [cen] [2001 г., Chikan, School, Straight, Students, Teachers, DVD5] [jap]

Reply to topic
DL-List and Torrent activity
Size:  1.58 GB   |    Registered:  2 years 3 months   |    Completed:  0 times
 
     
 
 
 
Author Message

buratino5 ®

Gender: Male

Longevity: 3 years 8 months

Posts: 1341

Post 01-Sep-2017 19:23

[Quote]

Hi.Me.Go.To / Himegoto / Hi Me Go To / Хи.Мэ.Го.То
Год производства: 2001 г.
Жанр: Chikan, School, Straight, Students, Teachers
Серии: ep. 1
Продолжительность: 1х~27 min
Цензура: Есть
Озвучка: Японская (Оригинальная)
Режиссер: Katsura Kurige
Автор оригинала: Utatane Hiroyuki
Студия: Chaos Project, Pink Pineapple
Описание RUS: Томоми и Такаши две старшеклассников, которые пытаются сделать следующий шаг на пути к взрослой жизни - потерять свою девственность. Но отсутствие Такаси страсти действительно ставит демпфер на вещи, пока он случайно не шпионы своего учителя, Мисаки-сенсей, получать чувствовал на поезде один день. Он решает, что он хочет дать ему попробовать, и вскоре после этого он и его учитель иметь дело. ©aniboom.net
Описание ENG: A boy and a girl are riding the train to school. They are a couple, but they haven't had sex yet because he was unable to perform when they first tried. When he sees his teacher being groped on the train, he feels a new sensation. When his teacher realizes that he was watching, she slowly transforms him into her ideal partner - on the train or in the hidden corners of the school. While his girlfriend feels abandoned by the absence of his presence, he is there having sex with his teacher and being trained to be a better lover. But when his teacher's car is fixed and she no longer has to ride the train, the relationship ends, he goes back to his girlfriend and this time, he is able to perform.
Информационные ссылки: AniDB - MAL - World Art - ХентайМаг
Качество видео: DVD5
Формат видео: DVD Video
Видео кодек: MPEG2
Аудио кодек: AC3
Видео: 720х480, (4:3), 29,970 кадров/сек, ~ 7534 Кбит/сек, NTSC
Аудио №1: JAP, AC-3, 2 канала, 192 Кбит/сек, 48,0 КГц
Аудио №2: JAP, AC-3, 2 канала, 192 Кбит/сек, 48,0 КГц

Скриншоты меню:

Обложки:

MediaInfo:

Общее
Полное имя : H:\VIDEO_TS\VTS_01_1.VOB
Формат : MPEG-PS
Размер файла : 1023 Мбайт
Продолжительность : 17 м.
Режим общего битрейта : Переменный
Общий поток : 8079 Кбит/сек
Видео
Идентификатор : 224 (0xE0)
Формат : MPEG Video
Версия формата : Version 2
Профиль формата : [email protected]
Параметр BVOP формата : Да
Параметр матрицы формата : Выборочная
Параметр GOP формата : M=3, N=15
Продолжительность : 17 м.
Вид битрейта : Переменный
Битрейт : 7534 Кбит/сек
Максимальный битрейт : 9800 Кбит/сек
Ширина : 720 пикселей
Высота : 480 пикселей
Соотношение сторон : 4:3
Частота кадров : 29,970 кадров/сек
Стандарт вещания : NTSC
Цветовое пространство : YUV
Субдискретизация насыщенности : 4:2:0
Битовая глубина : 8 бит
Тип развёртки : Чересстрочная
Порядок развёртки : Верхнее поле первое
Метод сжатия : С потерями
Бит/(Пиксели*Кадры) : 0.727
Временной код первого кадра : 00:59:56:00
Оригинал временного кода : Group of pictures header
Размер потока : 954 Мбайт (93%)
Аудио #1
Идентификатор : 189 (0xBD)-128 (0x80)
Формат : AC-3
Формат/Информация : Audio Coding 3
Расширение режима : CM (complete main)
Параметр Endianness формата : Big
Режим смешивания : DVD-Video
Продолжительность : 17 м.
Вид битрейта : Постоянный
Битрейт : 192 Кбит/сек
Каналы : 2 канала
Расположение каналов : Front: L R
Частота : 48,0 КГц
Битовая глубина : 16 бит
Метод сжатия : С потерями
Размер потока : 24,3 Мбайт (2%)
Аудио #2
Идентификатор : 189 (0xBD)-129 (0x81)
Формат : AC-3
Формат/Информация : Audio Coding 3
Расширение режима : CM (complete main)
Параметр Endianness формата : Big
Режим смешивания : DVD-Video
Продолжительность : 17 м.
Вид битрейта : Постоянный
Битрейт : 192 Кбит/сек
Каналы : 2 канала
Расположение каналов : Front: L R
Частота : 48,0 КГц
Битовая глубина : 16 бит
Метод сжатия : С потерями
Размер потока : 24,3 Мбайт (2%)
Меню
Время раздачи: с 09 до 00.00 (Киев), отдача: 100 кб/с (анальный инет)
1 Большая просьба, помогайте другим скачать (тогда релизов будет больше)
2 Если нет сидов - пишите в лс
3 Если сдохли постеры и скриншоты - пишите в лс
[www.pdenis.com].t21360.torrent 
Torrent: Registered [ 2017-09-01 19:23 ] · 6D6BB16973D7B5A40D0508161DFDE505A095344D

Download .torrent

Download

16 KB

Status: checked
Completed: 0 times
Size: 1.58 GB
terms.php
сказать спасибо


Последние поблагодарившие

[Profile] [PM]
Display posts:    
Reply to topic

Current time is: 16-Dec 04:14

All times are UTC + 3



You cannot post new topics in this forum
You cannot reply to topics in this forum
You cannot edit your posts in this forum
You cannot delete your posts in this forum
You cannot vote in polls in this forum
You cannot attach files in this forum
You can download files in this forum