Релизера можно поддержать материально. Реквизиты чуть выше подписи. Нажмите на спасибо и поблагодарите

Spocon! / Sportswear Complex / Школа Спорта и Секса (Shimizu Shin`ichi, Studio Eromatick, Mary Jane) (ep. 1-2 of 2) [cen] [2014 г., Big tits, Oral sex, Titsjob, School, Students, 2x DVD5] [jap]

Reply to topic
DL-List and Torrent activity
Size:  1.14 GB   |    Registered:  2 years 3 months   |    Completed:  0 times
 
     
 
 
 
Author Message

buratino5 ®

Gender: Male

Longevity: 3 years 8 months

Posts: 1341

Post 01-Sep-2017 17:28

[Quote]

-Spocon! / Sportswear Complex / すぽコン! / Школа Спорта и Секса
Год производства: 2014 г.
Жанр: Big tits, Oral sex, Titsjob, School, Students
Серии: ep. 1-2 of 2
Продолжительность: 2х~16 min + 5 min трейлеры
Цензура: Есть
Озвучка: Японская (Оригинальная)
Режиссер: Shimizu Shin`ichi
Автор оригинала: Astronauts Alya
Студия: Studio Eromatick, Mary Jane
Описание RUS: Татсуя преуспел во всех видах спорта пока учился в школе. Теперь, вместо того чтобы быть профессиональным атлетом, он планирует стать тренером в своей бывшей школе Джошо. Однажды лидер клуба по плаванию Катсуми пытается соблазнить его ради улучшения своих результатов. Он против таких действий, но что если лучшие спортсменки из других клубов имеют на него такие же планы?! ©hentaimag.ru
Описание ENG: Tatsuya excelled at all sports during his school years. Now instead of being an athlete, he trains to be a coach at his former teacher's school Academy Josho. However, the leader of the swimming club Katsumi tried to seduce him in order to improve her results by any means. He opposed her actions, but could it be that the elite players from other clubs also have the same plan!?
Информационные ссылки: AniDB - World Art - ХентайМаг
Доп. информация: На основе хентай-игры: Spocon! ~Sports Wear-Complex~ (2012)
Качество видео: 2x DVD5
Формат видео: DVD Video
Видео кодек: MPEG2
Аудио кодек: AC3
Видео: 720х480, (16:9), 29,970 кадров/сек, ~ 4200 Кбит/сек, NTSC
Аудио: JAP, AC-3, 2 канала, 224-256 Кбит/сек, 48,0 КГц

Скриншоты меню:

VOL1:

VOL2:

Обложки:

MediaInfo:

Общее
Полное имя : H:\VIDEO_TS\VTS_01_1.VOB
Формат : MPEG-PS
Размер файла : 592 Мбайт
Продолжительность : 18 с.
Общий поток : 274 Мбит/сек
Видео
Идентификатор : 224 (0xE0)
Формат : MPEG Video
Версия формата : Version 2
Профиль формата : [email protected]
Параметр BVOP формата : Нет
Параметр матрицы формата : Выборочная
Параметр GOP формата : Variable
Продолжительность : 33 мс.
Битрейт : 269 Мбит/сек
Максимальный битрейт : 8000 Кбит/сек
Ширина : 720 пикселей
Высота : 480 пикселей
Соотношение сторон : 16:9
Частота кадров : 29,970 кадров/сек
Стандарт вещания : NTSC
Цветовое пространство : YUV
Субдискретизация насыщенности : 4:2:0
Битовая глубина : 8 бит
Тип развёртки : Прогрессивная
Порядок развёртки : Верхнее поле первое
Метод сжатия : С потерями
Бит/(Пиксели*Кадры) : 25.951
Размер потока : 1,07 Мбайт (0%)
Аудио
Идентификатор : 189 (0xBD)-128 (0x80)
Формат : AC-3
Формат/Информация : Audio Coding 3
Расширение режима : CM (complete main)
Параметр Endianness формата : Big
Режим смешивания : DVD-Video
Продолжительность : 18 с.
Вид битрейта : Постоянный
Битрейт : 224 Кбит/сек
Каналы : 2 канала
Расположение каналов : Front: L R
Частота : 48,0 КГц
Битовая глубина : 16 бит
Метод сжатия : С потерями
Размер потока : 494 Кбайт (0%)
Меню
Время раздачи: с 09 до 00.00 (Киев), отдача: 100 кб/с (анальный инет)
1 Большая просьба, помогайте другим скачать (тогда релизов будет больше)
2 Если нет сидов - пишите в лс
3 Если сдохли постеры и скриншоты - пишите в лс
[www.pdenis.com].t21334.torrent 
Torrent: Registered [ 2017-09-01 17:28 ] · 06BF72395A5E3E002780ED612B68506D4B4D0FA6

Download .torrent

Download

12 KB

Status: checked
Completed: 0 times
Size: 1.14 GB
terms.php
сказать спасибо


Последние поблагодарившие

[Profile] [PM]
Display posts:    
Reply to topic

Current time is: 16-Dec 04:11

All times are UTC + 3



You cannot post new topics in this forum
You cannot reply to topics in this forum
You cannot edit your posts in this forum
You cannot delete your posts in this forum
You cannot vote in polls in this forum
You cannot attach files in this forum
You can download files in this forum