Релизера можно поддержать материально. Реквизиты чуть выше подписи. Нажмите на спасибо и поблагодарите

Rocco's Best Butt Fucks / Рокко Трахает Лучшие Задницы (Rocco Siffredi, Evil Angel) [2000 г., Gonzo, DT, Anal, DP, A2M, Cumshots & Facials, CumSwap, Group Sex, Fetish, Toys, Hardcore, DVD5]

Reply to topic
DL-List and Torrent activity
Size:  4.36 GB   |    Registered:  4 years 8 months   |    Completed:  1 time
 
     
 
 
 
Author Message

-WhatTheFuck ®

Gender: Male

Longevity: 3 years 9 months

Posts: 6586

Location: CCCP

Post 17-Mar-2015 18:16

[Quote]

Rocco's Best Butt Fucks
- Рокко Трахает Лучшие Задницы -

Альтернативные названия:
* Rocco's Best Butt Fucks 1
* Rocco Lo Sterminatore


Год производства: 2000 г.
Released on DVD: Apr 02, 2001
Страна: USA
Жанр: Gonzo, Foreign, All Sex & Compilations, Blowjob, Deep Throat, Anal, Fisting, Gaping, Multiple Penetrations, Ass To Mouth, Facial, Swallow, CumSwap, Cumshots & Facials, Big Butts, Natural Breasts, Teens/Young Women, Group Sex, Gangbang, Bukkake, Threesomes & More, Couples, Outdoors, Fetish, Lingerie/Stockings, Heels, Toys, Big Cock, Hardcore, Europeans, Straight, Rocco's Best Butt Fucks Series
Продолжительность: 02:16:32 (фильм)
01:42:17 (по жанрам)
Режиссер: Rocco Siffredi
Студия: Rocco Siffredi Productions
(Evil Angel)
Язык: Английский
В ролях:
Actresses-
Camilla Krabbe
Greta Milos
Katty Thurman [Anal A2M]
Jini J. (as Katy)
Kelly Stafford [Anal Facial]
Laura Angel
Laura Black
Michelle Greco
Nancy Lee (as Mirka)
Monica Cameron
Nell Olsoo [Anal A2M]
Nikki Blue (as Nicoletta Nera)
Olga Martinez [Facial DP]
Rebecca Ramada [Anal A2M]
Silvia Saint [Anal Facial]
Actors- David Perry, Leslie Taylor, Mike Foster, Philippe Soine, Rocco Siffredi, Zenza Raggi

Альтернативный постер

Scene Breakdowns

Scene 1. Katty Thurman, Nell Olsoo, Rebecca Ramada, Rocco Siffredi
Scene 2. Olga Martinez, David Perry, Leslie Taylor, Mike Foster, Philippe Soine, Rocco Siffredi
Scene 3. Silvia Saint, Rocco Siffredi
Scene 4. Laura Angel, 5 guys
Scene 5. Camilla Krabbe, Jini J., Nancy Lee, Rocco Siffredi
Scene 6. girl, Greta Milos, guy, Zenza Raggi
Scene 7. Kelly Stafford, Rocco Siffredi
Scene 8. 2 blondes, blonde, Monica Cameron, guys
Scene 9. girl, Nikki Blue, guy, Rocco Siffredi

Описание:

Rectum? Damn near killed 'em! Okay, so nobody actually died in the production of this anal extravaganza, but it's definitely not your average butt-fucking compilation either. Seventeen simply incredible women get royally violated by King Rocco and his boys in this selection of some of the nastiest and sensual scenes from Rocco's Prague films and the True Anal Stories series. If you don't buy it, you'll be missing a lot of seriously hot action. Меню: Есть
Доп. материалы и бонусы:
http://www.cduniverse.com/productinfo.asp?pid=2001207&style=ice
Качество видео: DVD5
Аудио кодек: AC3
Видео: 8500 Kbps, 29.970 fps, 720*480 (or 640*480 / 4:3), MPG2=MPEG 2 (SVCD/DVD)
Аудио: 192 Kbps, 48000 Hz, 2 ch, 0x2000=AC3 DVM [0x80]

MediaInfo

Общее
Полное имя : Rocco's Best Butt Fucks (2001) DVD5\VIDEO_TS\VTS_01_1.VOB
Формат : MPEG-PS
Размер файла : 1024 Мбайт
Продолжительность : 31 м.
Режим общего битрейта : Переменный
Общий поток : 4481 Кбит/сек
Видео
Идентификатор : 224 (0xE0)
Формат : MPEG Video
Версия формата : Version 2
Профиль формата : [email protected]
Параметр BVOP формата : Да
Параметр матрицы формата : Выборочная
Параметр GOP формата : M=3, N=15
Продолжительность : 31 м.
Вид битрейта : Переменный
Битрейт : 4199 Кбит/сек
Максимальный битрейт : 8500 Кбит/сек
Ширина : 720 пикселей
Высота : 480 пикселей
Соотношение сторон : 4:3
Частота кадров : 29,970 кадров/сек
Стандарт вещания : NTSC
Цветовое пространство : YUV
Субдискретизация насыщенности : 4:2:0
Битовая глубина : 8 бит
Тип развёртки : Чересстрочная
Порядок развёртки : Верхнее поле первое
Метод сжатия : С потерями
Бит/(Пиксели*Кадры) : 0.405
TimeCode_FirstFrame : 10:00:29;00
TimeCode_Source : Group of pictures header
Размер потока : 960 Мбайт (94%)
Аудио
Идентификатор : 189 (0xBD)-128 (0x80)
Формат : AC-3
Формат/Информация : Audio Coding 3
Расширение режима : CM (complete main)
Параметр Endianness формата : Big
Режим смешивания : DVD-Video
Продолжительность : 31 м.
Вид битрейта : Постоянный
Битрейт : 192 Кбит/сек
Каналы : 2 канала
Расположение каналов : Front: L R
Частота : 48,0 КГц
Битовая глубина : 16 бит
Метод сжатия : С потерями
Задержка видео : -66 мс.
Размер потока : 43,9 Мбайт (4%)
Меню
[www.pdenis.com].t180.torrent 
Torrent: Registered [ 2015-03-17 18:16 ] · 650BB2FDAE13D653DBE73A2F80585986DC90C3E3

Download .torrent

Download

12 KB

Status: checked
Completed: 1 times
Size: 4.36 GB
terms.php
сказать спасибо


Последние поблагодарившие

[Profile] [PM]
Display posts:    
Reply to topic

Current time is: 12-Dec 10:12

All times are UTC + 3



You cannot post new topics in this forum
You cannot reply to topics in this forum
You cannot edit your posts in this forum
You cannot delete your posts in this forum
You cannot vote in polls in this forum
You cannot attach files in this forum
You can download files in this forum