Релизера можно поддержать материально. Реквизиты чуть выше подписи. Нажмите на спасибо и поблагодарите

Ren`ai Fuyou Gakuha The Animation / Школа, Где Не Нужна Любовь / Ненужная школьная любовь (Raika Ken, Pink Pineapple) (ep. 1) [cen] [2014 г., Big tits, Titsjob, X-Ray, masturbation, School, DVD5] [jap]

Reply to topic
DL-List and Torrent activity
Size:  1.57 GB   |    Registered:  2 years 3 months   |    Completed:  0 times
 
     
 
 
 
Author Message

buratino5 ®

Gender: Male

Longevity: 3 years 8 months

Posts: 1341

Post 01-Sep-2017 19:21

[Quote]

Ren`ai Fuyou Gakuha The Animation / 恋愛不要学派 THE ANIMATION / Школа, Где Не Нужна Любовь / Ненужная школьная любовь
Год производства: 2014 г.
Жанр: Big tits, Titsjob, X-Ray, masturbation, School
Серии: ep. 1
Продолжительность: 1х~27 min + 21 min трейлеры
Цензура: Есть
Озвучка: Японская (Оригинальная)
Режиссер: Raika Ken
Автор оригинала: Yasui Riosuke
Студия: Pink Pineapple
Описание RUS: Во время занятий, Такана Фужисима, президент учсовета, шла по коридору в медкабинет в сопровождении своего секретаря Коноэ Чиомору. Вдруг Коноэ приказывает Такане раздеться, Такане повинуется, после чего они занимаются сексам прямо в коридоре и на лестнице, где их застаёт ученица этой же школы Футаба.....
Описание ENG: During the lessons, such Fuzhisima, president uchsoveta, walked down the hallway in a medical office, accompanied by his secretary Konoe Chiomoru. Suddenly Konoe orders Takane undress Takane obey, then they have sex right in the hallway and on the stairs, where they Marina finds a student of the same school Futaba.
Информационные ссылки: AniDB - MAL - World Art - ХентайМаг
Качество видео: DVD5
Формат видео: DVD Video
Видео кодек: MPEG2
Аудио кодек: AC3
Видео: 720х480, (16:9), 29,970 кадров/сек, ~ 4277 Кбит/сек, NTSC
Аудио: JAP, AC-3, 2 канала, 192 Кбит/сек, 48,0 КГц

Скриншоты меню:

Обложки:

MediaInfo:

Общее
Полное имя : H:\VIDEO_TS\VTS_01_1.VOB
Формат : MPEG-PS
Размер файла : 1024 Мбайт
Продолжительность : 31 м.
Режим общего битрейта : Переменный
Общий поток : 4560 Кбит/сек
Видео
Идентификатор : 224 (0xE0)
Формат : MPEG Video
Версия формата : Version 2
Профиль формата : [email protected]
Параметр BVOP формата : Да
Параметр матрицы формата : Выборочная
Параметр GOP формата : Variable
Продолжительность : 31 м.
Вид битрейта : Переменный
Битрейт : 4277 Кбит/сек
Максимальный битрейт : 9800 Кбит/сек
Ширина : 720 пикселей
Высота : 480 пикселей
Соотношение сторон : 16:9
Частота кадров : 29,970 кадров/сек
Стандарт вещания : NTSC
Цветовое пространство : YUV
Субдискретизация насыщенности : 4:2:0
Битовая глубина : 8 бит
Тип развёртки : Чересстрочная
Порядок развёртки : Верхнее поле первое
Метод сжатия : С потерями
Бит/(Пиксели*Кадры) : 0.413
Временной код первого кадра : 01:00:10:01
Оригинал временного кода : Group of pictures header
Размер потока : 961 Мбайт (94%)
Аудио
Идентификатор : 189 (0xBD)-128 (0x80)
Формат : AC-3
Формат/Информация : Audio Coding 3
Расширение режима : CM (complete main)
Параметр Endianness формата : Big
Режим смешивания : DVD-Video
Продолжительность : 31 м.
Вид битрейта : Постоянный
Битрейт : 192 Кбит/сек
Каналы : 2 канала
Расположение каналов : Front: L R
Частота : 48,0 КГц
Битовая глубина : 16 бит
Метод сжатия : С потерями
Размер потока : 43,1 Мбайт (4%)
Меню
Время раздачи: с 09 до 00.00 (Киев), отдача: 100 кб/с (анальный инет)
1 Большая просьба, помогайте другим скачать (тогда релизов будет больше)
2 Если нет сидов - пишите в лс
3 Если сдохли постеры и скриншоты - пишите в лс
[www.pdenis.com].t21358.torrent 
Torrent: Registered [ 2017-09-01 19:21 ] · AA0CBF5B8B26764BD4FCC8B114B3640B7742FD7D

Download .torrent

Download

16 KB

Status: checked
Completed: 0 times
Size: 1.57 GB
terms.php
сказать спасибо


Последние поблагодарившие

[Profile] [PM]
Display posts:    
Reply to topic

Current time is: 10-Dec 04:09

All times are UTC + 3



You cannot post new topics in this forum
You cannot reply to topics in this forum
You cannot edit your posts in this forum
You cannot delete your posts in this forum
You cannot vote in polls in this forum
You cannot attach files in this forum
You can download files in this forum